#TITLE:Hare Hare Yukai (Seven Mix);
#SUBTITLE:- Suzumiya Haruhi no Yuuutsu Ending;
#ARTIST:Haruhi, Yuki, Mikuru, Tsuruya-san, Kyon's Sister, Ryoko, Emiri;
#TITLETRANSLIT:;
#SUBTITLETRANSLIT:- The Melancholy of Haruhi Suzumiya Ending;
#ARTISTTRANSLIT:Hirano Aya, Chihara Minori, Goto Yuko, Matsuoka Yuki, Aoki Sayaki, Kuwatani Natsuko, Shiratori Yuri;
#CREDIT:Asahina-san;
#BANNER:videobanner.avi;
#BACKGROUND:background 1.jpg;
#LYRICSPATH:Hare_Hare_Yukai.lrc;
#CDTITLE:Asahina-san.png;
#MUSIC:Hare Hare Yukai.mp3;
#OFFSET:1.615;
#SAMPLESTART:176.618;
#SAMPLELENGTH:21.382;
#SELECTABLE:YES;
#BPMS:0.000=172.000;
#STOPS:;
#BGCHANGES:4.500=nosound.avi=1.000=1=0=0,
610.000=background 2.jpg=1.000=1=0=0,
99999=-nosongbg-=1.000=0=0=0 // don't automatically add -songbackground-
;
// cache tags:
#FIRSTBEAT:7.000;
#LASTBEAT:610.000;
#SONGFILENAME:songs/Otaku's Dream 3rd Anime Mix/[Asahina-san] Hare Hare Yukai (Seven Mix) - Suzumiya Haruhi no Yuuutsu/Hare_Hare_Yukai.sm;
#HASMUSIC:1;
#HASBANNER:1;
#MUSICLENGTH:212.160;
// end cache tags

//---------------dance-single - ----------------
#NOTES:
     dance-single:
     :
     Challenge:
     12:
     1.000,1.000,1.000,0.910,0.559,1050.000,486.000,193.000,0.000,1.000:
0000
0000
0000
0000
,
0000
0000
0000
0000
0000
0000
0000
0000
0000
0000
0000
0000
0010
0000
0001
1000
,
0010
0000
1001
0000
1001
0000
0000
0000
0110
0000
0000
0000
0010
0100
0010
0100
,
0010
0100
0010
0000
0010
0100
0010
0100
0010
0100
0010
0000
0101
0000
0000
0000
,
0011
0000
2200
0000
0000
3300
0022
0000
0000
0033
0000
0000
0110
0000
0000
0000
,
0101
1100
0000
2200
0000
3300
0202
0000
,
0303
0000
0220
0000
0000
0000
0000
0330
0000
0000
1001
0000
0000
0000
0010
0000
,
0100
0000
0001
0000
0000
0000
0100
0000
0010
0000
0100
1000
0012
0000
0000
0000
,
0013
0110
0000
0101
0110
0000
1100
0000
,
0010
0101
0000
0100
1010
0000
0110
0000
,
1100
0000
0110
0000
0000
0000
0001
0000
0100
0000
0220
0330
0000
0000
0220
0330
,
0000
0000
0220
0330
0000
0000
1001
0000
1100
0000
0110
1000
0100
0000
0000
0000
,
0011
0000
0011
0000
0011
0000
0011
0000
1000
0100
0000
0001
0010
0000
0000
0000
,
0110
0000
0110
0000
0110
0000
0110
0000
1000
0100
0000
0000
0110
0000
0000
0000
,
0101
0000
0110
1000
0000
0000
0101
0010
0000
0000
1100
0000
0110
0000
0000
0000
,
0101
0000
0101
0010
0000
0000
0011
0100
0011
0100
0022
0000
0000
0000
0033
0000
,
0101
1000
0000
0000
0110
0000
0101
0000
0000
0000
1100
0010
0000
0000
0110
1000
,
0000
0000
0011
1000
0110
0000
0100
0000
0010
0000
1100
0000
0100
0010
0000
0100
,
0010
0202
0000
0000
0303
1010
0000
0011
,
1100
0110
0101
0011
1100
0110
2200
3300
,
0110
0000
0101
0000
0110
0000
0202
0000
0000
0000
0000
0000
0303
0000
0000
1000
,
0110
0000
0001
0000
1000
0000
0010
0000
0000
0000
0100
1000
0011
0000
0000
0100
,
1000
0100
0010
0000
0000
0000
0100
0000
0000
0000
1100
0000
0100
0000
0010
0000
,
0001
0010
0000
0100
0001
0101
0000
0000
,
0010
0100
1000
0010
0001
1000
0100
0010
1000
0100
0001
1000
0100
0010
0100
0001
,
0010
0100
0010
0100
1000
0010
0100
1000
0001
1000
0100
1000
0010
0100
0001
0010
,
0100
0202
0000
0000
0303
0010
1000
0001
,
0100
0000
1000
0000
0001
0010
1000
0100
0001
0010
1000
0100
1200
0000
0000
0000
,
0000
0000
0000
0000
0000
0000
0000
0000
0000
0000
0000
0000
0000
0000
0000
0000
0000
0000
0020
0000
0000
0000
0000
0000
0000
0000
0000
0030
0000
0000
0002
0000
0000
0000
0003
0000
0020
0000
0000
0000
0000
0000
0000
0000
0000
0000
0000
0000
,
0000
0000
0000
0000
0000
0000
0030
0000
0000
2000
0000
0000
0000
0000
3000
0020
0000
0030
0002
0000
0000
0000
0000
0000
,
0000
0000
0003
0020
0000
0030
2000
0000
0000
3000
0000
0000
0020
0000
0030
2000
0000
0000
0000
0000
3000
0002
0000
0000
,
0000
0000
0003
0020
0000
0000
0000
0000
0000
0330
0000
0000
1010
0000
0000
0001
0000
0000
0100
0000
0000
0010
0000
0000
,
0100
0202
0303
0010
1000
2200
3300
0010
,
0100
0000
0202
0000
0303
0000
0010
0000
0100
0000
0001
0000
0101
0010
0100
0001
,
1000
0010
1000
0100
0001
0100
0010
0100
0010
0000
1010
0000
1100
0001
1100
0010
,
1100
0001
1100
0010
2200
0000
3300
0000
0101
1000
0101
1000
0021
0000
1000
0000
,
0000
0130
0001
0000
0201
0310
0000
1100
,
0110
0000
0011
0000
1000
0100
0010
0100
1000
0100
0010
0000
0101
0000
0220
0000
,
0330
1001
0220
0330
0101
0110
0000
0011
,
1100
0000
0000
0000
0000
0000
0000
0000
0011
0000
0000
0000
0000
0000
0000
0000
1000
0000
0000
0000
0100
0000
0000
0000
1000
0000
0000
0000
0000
0000
0000
0000
0210
0000
0000
0000
0000
0000
0000
0300
0011
0000
0000
0000
0000
0000
0000
0000
0101
0000
0000
0000
0000
0000
0000
0000
0000
0000
0000
0000
0000
0000
0000
0000
,
0110
0000
0101
0010
0000
0000
0000
0010
1100
0000
1010
0000
0101
0000
0000
0000
,
0110
0000
0000
0000
0000
0000
0000
0000
0101
0000
0000
0000
0010
0000
0000
0000
0000
0000
0000
0000
0000
0000
0000
0000
0000
0000
0000
0000
0000
0000
0000
0000
0120
0000
0000
0000
0000
0000
0000
0030
1100
0000
0000
0000
0000
0000
0000
0000
1100
0000
0000
0000
0000
0000
0000
0000
0000
0000
0000
0000
0000
0000
0000
0000
,
0110
1000
0101
0000
0000
0000
0110
0000
0000
0000
0210
0000
0300
0000
1010
0000
,
0000
0000
0011
0000
0000
0000
0110
0000
1000
0100
1000
0100
0011
0000
0110
0000
,
0000
0000
0011
0000
0110
0000
0000
0000
1010
0100
1010
0000
0000
0000
0101
0010
,
0101
0000
0000
0000
0000
0000
0000
0000
2020
0000
0000
0000
0000
0000
0000
3030
0100
0000
0000
0000
0010
0000
0000
0000
0001
0000
0000
0000
0010
0000
0000
0000
0100
0000
0000
0000
0000
0000
0000
0000
0101
0000
0000
0000
1000
0000
0000
0000
0110
0000
0000
0000
0000
0000
0000
0000
0000
0000
0000
0000
0000
0000
0000
0000
,
1100
0000
0000
0000
0110
0000
0000
0000
0101
0010
0101
0000
0000
0000
1010
0100
,
1001
0010
0101
0000
0000
0000
0000
0000
0110
0000
0001
0000
0101
0000
0000
0000
,
0110
0000
0101
0000
0000
0000
0000
0000
1100
0001
0110
0001
0110
0000
0000
0000
,
0101
0000
0000
0000
0000
0000
0000
0000
0022
0000
0000
0000
0000
0000
0000
0000
0000
0000
0000
0000
0000
0000
0000
0033
2200
0000
0000
0000
0000
0000
0000
0000
0000
0000
0000
0000
3300
0000
0000
0000
0000
0000
0000
0000
0000
0000
0000
0000
0001
0000
0000
0000
0000
0000
0000
0000
0000
0000
0000
0000
0000
0000
0000
0000
,
0101
1000
0101
1000
0101
0000
0000
0000
0110
0000
0001
0000
1000
0000
0000
0000
,
1100
2200
3300
0010
0100
0001
0201
0000
,
2000
0000
0000
0000
0000
0000
0000
3000
0020
0000
0000
0000
0000
0000
0000
0000
0030
0000
0000
0000
0000
0000
0000
0300
0012
0000
0000
0000
0000
0000
0000
0000
0020
0000
0000
0000
0000
0000
0000
0030
0200
0000
0000
0000
0000
0000
0000
0300
2000
0000
0000
0000
0000
0000
0000
0000
0000
0000
0000
0000
0000
0000
0000
3000
,
0200
0000
0000
0000
0000
0000
0000
0300
0020
0000
0000
0000
0000
0000
0000
0000
0033
0000
0000
0000
0000
0000
0000
0000
2000
0000
0000
0000
3000
0000
0000
0000
1001
0000
0000
0000
0000
0000
0000
0000
0010
0000
0000
0000
0000
0000
0000
0000
0101
0000
0000
0000
0000
0000
0000
0000
0000
0000
0000
0000
0000
0000
0000
0000
,
1010
0110
0000
1010
0101
0000
0202
0000
,
0000
0000
0000
0000
0000
0000
0000
0000
0000
0000
0000
0000
0000
0000
0000
0000
0000
0000
0000
0000
0000
0000
0000
0303
1010
0000
0000
0000
0000
0000
0000
0000
1100
0000
0000
0000
0000
0000
0000
0000
1010
0000
0000
0000
0000
0000
0000
0000
0000
0000
0000
0000
0000
0000
0000
0000
0101
0000
0000
0000
0000
0000
0000
0000
,
1100
0000
1000
0100
0010
0001
0110
0000
0202
0000
0000
0000
0303
0000
0110
0000
,
0101
0000
0000
0110
0000
0000
0101
0000
1000
0100
0010
0001
1100
0000
0000
0000
0000
0000
0110
0000
0000
0000
0000
0000
,
0101
0000
0010
0000
0000
0000
1000
0000
0001
0010
0001
0000
1000
0100
1000
0000
,
0010
0000
1000
0000
0000
0000
0001
1000
0100
1000
0010
0001
0010
0001
1000
0001
,
0010
0001
1000
0001
0010
0001
0100
0001
1000
0001
0100
0001
0010
1000
0010
1000
,
0001
1000
0100
0001
0010
1000
0100
0010
0001
0010
0100
0010
0100
0010
0100
0010
,
0100
0010
1000
0100
0010
0001
0010
0000
0101
0000
0000
0000
0110
0000
0000
0000
,
1100
0001
0110
0000
0000
0000
0001
0000
0101
0000
0000
0000
0101
0000
0000
0000
,
1010
0100
1001
0000
0000
0000
0010
0000
0001
0000
0101
0000
0000
0000
0101
0000
,
0000
0000
0101
0000
0000
0000
1010
0100
1010
0000
1010
0000
0000
0000
0000
0000
,
0101
0000
0010
0000
0101
0000
0101
0000
1000
0100
0000
0000
0001
0100
0000
0000
,
1010
0000
0001
0000
1100
0000
0110
0000
0001
1000
0000
0010
0100
0000
0000
0000
,
0110
0001
0110
0000
0000
0000
0011
0000
0100
0000
1010
0000
0100
0000
0001
0000
,
1000
0000
0010
0000
0100
0000
0001
0000
0101
0000
0101
0000
0010
0100
0000
0000
,
1010
1010
1010
1010
0000
0101
0000
2200
,
3300
1100
0011
1100
0000
0110
0101
0000
,
0101
0000
0202
0000
0000
0000
0303
0000
0000
0000
2020
0000
3030
0000
0001
0010
,
0100
1000
0010
0001
0100
0010
0001
0100
1000
0100
0010
0100
0022
0000
0033
0000
,
0101
0000
1100
0000
0110
0000
1010
0000
0001
0010
0000
0010
0100
0000
0000
0000
,
0101
0000
0010
0000
0100
0000
1100
0000
1000
0100
0000
0000
0101
0000
0000
0000
,
0110
1000
0101
0000
0000
0000
1010
0100
0000
0000
0101
1000
0110
0000
0000
0000
,
0101
0110
0000
1001
1010
2020
0000
3030
,
0101
0000
0110
0000
0101
0000
0101
0000
0000
0000
0110
1000
0000
0000
1010
0001
,
0000
0000
0101
1000
0101
0000
0110
1000
0000
0000
1000
0000
0101
0000
0000
0000
,
0110
0000
0110
1000
0000
0000
0000
1000
0110
0000
0100
0000
0011
0000
0110
0000
,
1100
0000
0101
0000
0001
0010
1000
0100
0001
0010
1000
0100
1002
0000
0000
0000
,
0000
0000
0000
0000
0000
0000
0000
0000
0000
0000
0000
0000
0000
0000
0000
0000
0000
0000
0000
0000
0000
0000
0000
0000
0020
0000
0000
0000
0000
0000
0000
0000
0000
0000
0000
0000
0000
0000
0000
0030
2000
0000
0000
0000
0000
0000
0000
3000
0020
0000
0000
0000
0000
0000
0000
0000
0000
0000
0000
0000
0000
0000
0000
0000
,
0000
0000
0000
0000
0000
0000
0000
0000
0000
0000
0000
0000
0000
0000
0000
0000
0030
0000
0000
0000
0000
0000
0000
0000
0200
0000
0000
0000
0000
0000
0000
0000
0300
0000
0000
0000
0000
0000
0000
0000
0200
0000
0000
0000
0000
0000
0000
0300
0020
0000
0000
0000
0000
0000
0000
0000
0000
0000
0000
0000
0000
0000
0000
0000
,
0000
0000
0000
0000
0000
0000
0000
0030
2000
0000
0000
0000
0000
0000
0000
3000
0020
0000
0000
0000
0000
0000
0000
0000
0030
0000
0000
0000
0000
0000
0000
0000
0020
0000
0000
0000
0000
0000
0000
0030
0200
0000
0000
0000
0000
0000
0000
0000
0000
0000
0000
0000
0000
0000
0000
0300
0020
0000
0000
0000
0000
0000
0000
0000
,
0030
2000
3003
0000
0020
0130
1000
0110
,
0001
0220
0330
0010
1000
0202
0303
0010
,
0100
2200
3300
0010
0100
0001
0202
0000
,
0000
0000
0000
0303
0000
1010
0000
0101
,
0000
0000
1010
0000
0101
0000
1100
0010
1100
0010
1100
0000
1001
0000
0220
0000
,
0330
0101
0202
0303
1010
0202
0303
0101
,
0101
0202
0000
0000
0000
0303
1010
1010
,
0000
0101
0110
0000
1100
0110
0000
0101
,
0110
2200
0000
3300
0110
0101
0101
0000
,
0110
0101
0000
0000
1010
0110
0101
0000
,
0110
2200
0000
3300
0101
0110
1010
0000
,
0110
0101
0000
1010
0000
0101
0000
0101
,
0000
1001
0000
0010
0100
0000
0101
0101
,
1100
0110
0101
0000
0011
1100
0000
1010
,
0201
0002
0000
0000
0000
0303
1010
0101
,
0000
0110
0210
0000
0310
0110
0000
0011
,
2001
0002
0000
3003
0010
0100
0001
0000
,
0200
0000
0000
0000
0000
0000
0000
0300
0021
0000
0000
0000
0000
0000
0000
0000
0000
0000
0000
0000
0000
0000
0000
0000
0000
0000
0000
0000
0000
0000
0000
0030
2100
0000
0000
0000
0000
0000
0000
0000
0000
0000
0000
0000
0000
0000
0000
3000
0012
0000
0000
0000
0000
0000
0000
0000
0000
0000
0000
0000
0000
0000
0000
0003
,
0210
0000
0000
0000
0000
0000
0000
0300
2000
0000
0000
0000
0000
0000
0000
0000
0000
0000
0000
0000
0000
0000
0000
3000
0120
0000
0000
0000
0000
0000
0000
0000
0000
0000
0000
0000
0000
0000
0000
0000
0000
0000
0000
0000
0000
0000
0000
0030
0002
0000
0000
0000
0000
0000
0000
0000
1003
0000
0000
0000
0000
0000
0000
0000
,
0010
0000
0100
0000
0001
0000
0100
0000
0001
0010
0100
1000
0001
1000
0100
0010
,
0001
0100
1000
0010
0001
0100
1000
0010
0001
0100
1000
0100
0001
0100
0010
0100
,
1000
0100
0010
0001
0010
0100
0010
0100
0010
0100
1000
0100
0010
0100
0010
0001
,
0010
0100
1000
0100
0010
0100
0010
0001
0010
0001
1000
0100
1000
0100
0010
0100
,
0001
0000
0000
0000
0010
0000
0000
0000
0001
0000
0000
0000
0100
0000
0000
0000
0010
0000
0000
0000
0100
0000
0000
0000
1000
0000
0000
0000
0100
0000
0000
0000
0010
0000
0000
0000
0001
0000
0000
0000
0010
0000
0000
0000
0100
0000
0000
0000
2200
0000
0000
0000
0000
0000
0000
0000
0000
0000
0000
0000
0000
0000
0000
3300
,
0011
0000
0101
0101
0000
0110
0000
1001
,
0110
0000
0100
0010
0100
0000
0101
0000
0110
1000
0000
0000
0000
0010
1001
0000
,
0010
0100
0202
0000
0000
0303
2000
0100
,
0010
0000
0000
3001
0000
0000
0000
0000
0000
0000
1010
0000
0000
0000
0000
0000
0101
0000
0000
0000
0000
0000
0000
0000
,
0000
0000
1010
0000
1100
0000
0011
0000
2010
0000
0000
0020
0000
0000
0000
0000
,
0000
0000
0000
0000
0000
0000
0000
0000
0000
3030
0000
0000
0000
0000
0000
0000
0000
0000
0000
0011
0000
0000
1100
0000
,
0000
0000
0000
0000
0110
0000
0000
0000
0000
0022
0000
0000
0000
0000
0000
0000
0000
0033
1000
0000
0000
0100
0000
0000
,
0010
0000
0022
0000
0000
0033
0000
0000
0110
0000
0000
0000
1001
0000
0000
0000
,
0000
0110
0000
0202
0000
0000
0000
0000
0000
0000
0000
0000
0000
0000
0000
0000
0000
0000
0000
0000
0000
0303
0000
0000
,
0000
0000
0000
1010
0000
0000
0000
0000
0000
0101
0000
0000
0000
0000
0000
0000
0000
0000
0110
0000
0000
0000
1001
0000
,
0000
2020
0000
0000
0000
3030
0202
0000
,
0000
0000
0303
0110
0000
1001
2200
0000
,
0000
0000
3300
0101
0000
0110
0202
0000
,
0303
0110
0101
0000
1100
1100
0000
1100
,
0000
0220
0000
0330
0101
1010
1000
0001
,
0100
2200
3300
0010
0100
0202
0303
0010
,
0100
0000
0220
0000
0330
0000
0001
0000
1000
0000
0010
0000
2100
0000
0010
0100
,
0010
0100
0010
0100
0010
0100
0010
0100
3010
0000
0101
0000
0000
0000
0110
0000
,
0000
0000
0101
0000
0110
0000
0001
0100
1000
0100
1000
0100
0001
0000
1100
0000
,
0000
0011
0110
0000
1001
0110
0000
0101
,
0110
0000
1100
0000
0010
0100
0010
0100
0010
0100
0010
0000
1010
0000
1010
0100
,
0000
0000
0101
0000
0101
0010
0000
0000
0110
0000
1100
0010
0000
0000
1001
0000
,
0010
0000
0202
0000
0000
0000
0303
0000
0010
0001
1100
0000
1100
0000
0000
0100
,
0010
0000
0202
0000
0000
0000
0303
0000
0110
0000
0001
0000
1010
0100
0000
0010
,
0001
0000
0220
0000
0000
0000
0330
0000
1001
0000
0101
0000
0110
0110
0110
0000
,
2100
0000
0000
0000
0000
0000
0000
0000
0000
0000
0000
0000
0000
0000
0000
0000
0000
0000
0000
0000
0000
0000
0000
0000
0002
0000
0000
0000
0000
0000
0000
0000
0000
0000
0000
0000
0000
0000
0000
0000
0000
0000
0000
0000
0000
0000
0000
0000
0003
0000
0000
0000
0000
0000
0000
0000
0000
0000
0000
0000
0000
0000
0000
0000
0000
0000
0000
0000
0000
0000
0000
0000
0220
3000
0000
0000
0000
0000
0000
0000
0000
0000
0000
0000
0000
0000
0000
0000
0000
0000
0000
0000
0000
0000
0000
0000
0330
0000
0000
0000
0000
0000
0000
0000
0000
0000
0000
0000
0000
0000
0000
0000
0000
0000
0000
0000
0000
0000
0000
0000
2020
0000
0000
0000
0000
0000
0000
0000
0000
0000
0000
0000
0000
0000
0000
0000
0000
0000
0000
0000
0000
0000
0000
0000
3030
0000
0000
0000
0000
0000
0000
0000
0000
0000
0000
0000
0000
0000
0000
0000
0000
0000
0000
0000
0000
0000
0000
0000
0202
0000
0000
0000
0000
0000
0000
0000
0000
0000
0000
0000
0000
0000
0000
0000
0000
0000
0000
0000
0000
0000
0000
0000
,
0303
0000
0220
0000
0330
0000
2200
0000
3300
0000
0000
0000
0110
1000
0101
0000
,
0000
1000
0110
0000
1001
0000
0000
0000
0110
1000
0101
0000
0000
0000
1100
0010
,
1100
0010
2200
0000
0000
0000
0000
0000
3300
0000
0000
0000
0101
1000
0010
0000
,
0000
0000
0101
1000
0110
0000
0000
0000
1001
0000
0110
1000
0000
1000
0101
0000
,
0101
0202
0000
0303
1010
0110
0101
0000
,
0110
0000
0101
0000
0000
0000
0000
0000
2020
3030
0000
0000
0110
0000
0000
0000
,
1100
0000
0110
0000
0000
0000
0011
0000
0000
0000
0000
0000
1000
0100
1000
0100
,
1000
0100
0010
0001
0010
0001
0010
0001
0010
0100
1000
0100
0010
0001
0010
0100
,
0010
0100
0010
0100
0000
0000
0010
0000
0101
0010
0100
0000
0001
0000
0000
0000
,
0010
0000
1010
0100
0000
0000
0010
0000
1100
0000
0101
1000
0010
0000
0000
0000
,
1000
0000
0010
0000
0000
0000
0101
0010
1100
0010
0101
0000
0110
0000
0000
0000
,
0110
0000
0000
0000
0000
0000
0000
0000
0120
0000
0000
0000
0000
0000
0000
0000
0000
0000
0000
0000
0000
0000
0000
0000
0000
0000
0000
0000
0000
0000
0000
0030
1100
0000
0000
0000
0011
0000
0000
0000
1100
0000
0000
0000
0000
0000
0000
0000
1100
0000
0000
0000
0000
0000
0000
0000
0000
0000
0000
0000
0000
0000
0000
0000
,
1010
0000
1010
0110
0000
0101
0000
0110
,
1010
0110
0110
1100
0110
0101
1001
1100
,
0110
0101
0011
0000
1001
0000
0110
0101
,
0000
0110
1100
1100
0000
0110
0101
0110
,
0100
1001
0110
0110
1100
0101
0000
0202
,
0000
0000
0303
0000
;

//---------------dance-single - ----------------
#NOTES:
     dance-single:
     :
     Hard:
     8:
     0.607,0.611,0.179,0.325,0.026,794.000,38.000,69.000,0.000,0.000:
0000
0000
0000
0000
,
0000
0000
0000
0011
,
1000
0000
0100
0000
0001
0000
0000
0000
0110
0000
0000
0000
1000
0001
1000
0001
,
1000
0001
1000
0000
0100
0000
0001
0000
1000
0000
0000
0000
1000
0000
0000
0000
,
0100
0001
0000
0010
0100
0000
0001
0000
,
1000
0010
0000
0100
0001
0000
1000
0000
,
0010
0000
0100
0000
0001
1000
0000
0100
,
0010
0000
0100
0000
0000
0000
0100
0000
0010
0000
0100
0010
0100
0000
0000
0000
,
0010
0100
0000
1000
0010
0000
0100
0000
,
0001
1000
0000
0010
0100
0000
0220
0000
,
0330
0220
0000
0000
0330
0110
0000
0110
,
0000
0110
0000
0100
0010
2000
0000
0000
,
3100
0010
1000
0002
0000
0000
0000
0003
,
0010
0000
0100
0000
0010
0000
2000
0000
3000
0000
0001
0000
0020
0030
0000
0000
,
0100
0001
0000
0100
0000
0010
1000
0000
,
0100
0001
0000
1000
0100
0020
0000
0000
,
0130
0000
0001
1000
0000
0010
0000
0100
,
0000
0000
0001
0000
1000
0000
0000
0010
0000
0000
0100
0000
0001
0000
0000
0000
,
2000
0000
0020
0000
0000
0000
0000
0000
0000
3030
0001
0000
0000
0000
0100
0000
,
0010
1000
0001
0100
0001
1000
0001
0000
,
0010
0100
0001
0200
0000
0000
0000
0000
,
0301
0010
1000
0001
0000
0010
0100
0000
,
1000
0001
0000
0010
0000
1000
0001
0000
,
0010
0100
0000
1000
0100
0010
0000
0000
,
0010
0100
0001
0010
0000
0100
0000
0001
,
0000
0000
1000
0000
0010
0000
0000
0100
0000
0000
1000
0000
0100
0000
0000
0000
,
0010
0002
0000
0000
0003
0001
0010
0001
,
1000
0100
1000
0001
0010
0001
0200
0000
,
0000
0000
0000
0320
0000
0130
0002
0000
,
0000
0000
0000
1003
0000
0010
0200
0000
,
0300
0010
0100
0000
0100
0010
0000
1000
,
0000
0001
0000
0000
0010
0100
0001
1000
,
0001
0010
0000
0001
1000
0010
0000
0100
,
0001
1000
0000
0010
0100
0001
0100
0001
,
0100
0001
0100
0001
0010
1010
0000
0101
,
0000
0110
0110
0000
0000
0000
0010
1000
,
0000
0100
0001
0000
0010
1000
0000
0100
,
0010
0100
0001
1000
0001
0100
0001
1000
,
0000
0100
0010
0000
0010
0100
0000
1000
,
0001
0000
2000
0000
0000
0000
0000
0000
3100
0000
0010
0000
0200
0300
0000
0000
,
0100
0020
0000
0030
0001
0010
0001
0000
,
0010
2000
0000
0000
3100
0010
0001
0000
,
0100
0010
0000
0100
0000
1001
0000
0110
,
0000
0101
0000
1010
0000
0000
0001
0010
,
0000
0100
0001
0000
1000
0010
0000
1000
,
0100
0002
0000
0000
0000
0003
0001
1000
,
0100
0001
0100
0000
1000
0010
0000
0100
,
0010
0002
0000
0003
0010
0100
0010
0000
,
0010
0100
0000
0000
0100
0000
0010
0000
,
0010
0100
0000
0100
0000
0000
0001
0000
,
0010
0000
1000
0000
0100
1000
0100
0000
,
0010
0001
0000
0000
0010
1000
0001
0000
,
0010
0200
0000
0002
0000
0000
0000
0000
,
0000
0000
0000
0303
0010
1000
0001
0000
,
0010
0100
0000
0020
2000
3030
0220
0000
,
0000
0000
0330
0000
0000
0010
0000
0100
,
0001
0000
0000
1000
0010
0000
0000
0100
,
0001
0000
0100
0000
0010
0000
0000
0000
0200
0300
0000
0000
0001
0000
0000
0000
,
0010
1000
0000
0100
0000
0000
0010
0000
,
0001
0100
0000
0020
0000
0000
2030
0000
,
0000
3002
0000
0000
0003
0010
0000
0100
,
0001
0000
1000
0000
0000
0000
0010
0000
0100
0000
0010
0100
0020
0000
0000
0000
,
0130
0010
0000
0010
0000
0000
0100
0000
,
0001
1000
0000
0020
0000
0000
0230
0000
,
0300
0002
0000
0000
0003
1010
0000
0101
,
0000
0110
0000
1000
0010
0001
0000
0000
,
0010
1000
0010
0200
0000
0000
0000
0300
,
0001
1000
0010
0100
0000
0001
1000
0000
,
1000
0010
0000
0001
0000
0001
0100
0000
,
0100
0001
0000
0001
0100
0010
0000
0000
,
0010
1000
0001
0100
0000
0010
0000
1000
,
0000
0000
0001
0000
0100
0000
0000
0010
0000
0000
0100
0000
0001
0000
0000
0000
,
1000
0020
0000
0000
0030
0001
0000
1000
,
0100
1000
0100
0010
0100
0010
0002
0000
,
0013
0100
0001
0200
0000
0000
0000
0000
,
0301
0100
0001
0200
0000
0310
1000
0000
,
0010
0100
0000
0010
0000
1000
0001
0000
,
0010
0100
0000
1000
0001
0100
0000
0000
,
0001
0010
1000
0010
0001
0100
0010
0100
,
0001
1000
0010
0001
0010
0100
0001
1000
,
0010
0200
0000
0000
0000
0300
0001
0010
,
1000
0001
0100
0010
0100
0002
0020
0000
,
0000
0000
0033
0000
0010
0100
0002
0000
,
0000
0000
0003
0010
0000
0100
0001
0000
,
0000
1000
0010
0000
1000
0010
0000
1000
,
0000
0001
0000
0000
0010
0100
0001
1000
,
0010
0100
0000
0001
0010
0001
0000
0010
,
1000
0010
0000
0010
1000
0001
0200
0000
,
0000
0000
0000
0000
0300
1001
0000
0110
,
0000
0101
0010
0000
0000
0000
0001
0010
,
0100
0010
1000
0010
0100
0010
0100
0001
,
1000
0001
1000
0001
1000
0100
1000
1100
,
0000
0010
0100
0010
0100
0001
0100
0001
,
0100
0010
1000
0001
0100
0010
0100
0010
,
0100
0001
0100
0001
0100
0001
0100
0010
,
1000
0001
0010
0100
1000
0100
0010
0001
,
0100
0010
0100
0001
1000
1010
0000
0101
,
0000
0110
0000
1001
0000
0000
0010
0100
,
0000
0001
1000
0000
0010
0100
0000
0010
,
0100
0002
0000
0000
0000
0003
0010
1000
,
0000
1000
0010
0000
0001
0100
0000
0100
,
0010
0200
0000
0000
0301
1000
0010
0000
,
0100
0001
0000
0000
0001
0000
1000
0000
,
0010
0100
0000
0001
0000
0000
0001
0010
,
0100
1000
0100
0010
0001
0010
0100
0010
,
0100
0000
0010
0000
1000
0000
0010
0000
0100
0000
0001
0000
1000
0000
0000
0001
,
1000
0000
0010
0000
0001
0000
0100
0000
0010
0000
1000
0000
0010
0000
0000
0100
,
0001
0000
0010
0000
0100
0000
0010
0000
1000
0000
0001
0000
0100
0000
0000
0010
,
1000
0010
0100
0010
0100
0001
0022
0000
,
0033
0000
0010
1000
0000
0001
0000
0100
,
0010
0000
0000
0001
1000
0000
0000
1000
,
0010
0100
0002
0000
0000
0003
0010
0000
,
0100
0001
1000
0010
,
0100
0001
0000
1000
0010
0100
0001
0000
,
1000
0100
1000
0020
,
0030
0001
0200
0000
0000
0300
0010
1000
,
0001
0100
0000
0001
0010
0001
0000
0010
,
0100
0010
0000
1000
0010
0000
0200
0000
,
0000
0000
0300
0001
,
0010
1000
0001
0020
,
0030
0010
0010
0000
0100
0001
0000
0001
,
0000
0001
0001
0000
2000
0000
3010
0000
,
0000
0010
0010
0000
0100
0001
0000
0010
,
0000
0010
0010
0000
1000
0001
0010
0100
,
0010
1000
0100
0010
0001
0010
0100
0010
,
1000
0100
1000
0100
0010
0100
0001
0010
,
0100
0001
1000
0010
0100
0101
0000
1010
,
0000
0101
0101
0000
0000
0000
0100
0010
,
1000
0010
1000
0010
0100
0010
0100
1000
,
0100
0000
0010
0001
0010
0100
0010
1000
,
0001
0100
0001
0100
0001
1000
0010
1000
,
0010
0100
0001
1000
0010
0100
0001
0010
,
0001
0010
1000
0100
1000
0010
0100
0001
,
0010
0001
0100
0010
1000
0010
0100
0001
,
1000
0010
0100
0001
0100
0101
0000
1010
,
0000
0101
0000
0120
0000
0030
0001
0010
,
0000
1000
0001
0000
0100
0010
0000
1000
,
0001
0200
0000
0000
0000
0300
0010
1000
,
0000
1000
0001
0000
0001
1000
0000
1000
,
0001
0200
0000
0300
0010
1000
0001
0000
,
0010
0002
0000
0003
0010
0000
0010
0000
,
0100
0002
0000
2003
0000
0000
3010
0100
,
0001
0100
0010
1000
0001
0100
0001
0100
,
0001
1000
0010
1000
0010
0100
0001
0000
,
1000
0010
0000
0200
0000
0000
0000
0000
,
0000
0000
0000
0300
0001
1000
0010
0000
,
0100
0001
0000
1000
0010
0000
0002
0000
,
0000
0000
0000
0000
0003
0110
0000
0010
,
0002
0000
0000
0013
0200
0000
0300
0010
,
0001
0010
0100
0000
0001
0000
0100
0010
,
0000
0100
0001
1000
0100
0010
0100
0001
,
0010
1000
0001
0100
1000
0001
0100
0202
,
0000
0000
0303
0000
;

//---------------dance-single - ----------------
#NOTES:
     dance-single:
     :
     Medium:
     6:
     0.396,0.575,0.000,0.075,0.007,572.000,0.000,16.000,0.000,0.000:
0000
0000
0000
0000
,
0000
0000
0000
0100
,
0001
1000
0100
0001
,
0010
0100
0001
1000
,
0000
0000
0000
1000
0100
0001
1000
0000
,
0000
0000
0000
0001
1000
0001
0100
0000
,
0000
0000
0000
0000
0000
0010
0000
0001
,
1000
0010
0000
0100
0001
1000
0010
0000
,
0000
0000
0000
1000
0100
1000
0001
0000
,
0000
0000
0000
0001
0010
0001
1000
0000
,
0000
0000
0000
0000
0000
0001
0000
0010
,
0000
0100
0000
0000
0001
0000
0000
0000
,
0010
0000
1000
0000
,
0100
0000
0000
0001
0100
0001
1000
0000
,
0010
0000
0001
0000
,
0010
0000
0000
0001
1000
0001
1000
0000
,
0010
0000
0010
0000
,
0010
0000
0000
0010
0100
0010
0100
0000
,
0001
0000
0000
0000
0001
1000
0000
1000
,
0001
1000
0001
1000
0001
1000
0001
0000
,
0001
0000
1000
0000
,
0010
0000
0000
0001
0100
0010
1000
0000
,
1000
0000
0000
0000
1000
0010
0000
0010
,
0000
0010
0000
0010
1000
0001
0000
0000
,
0001
0100
0001
1000
0000
1000
0000
0010
,
0000
0000
0100
0000
0001
0000
0000
1000
0000
0000
0010
0000
1000
0000
0000
0000
,
0001
0100
0000
0000
0000
0000
0001
0000
,
0100
0001
1000
0020
,
0000
0000
0000
0230
,
0000
0000
0000
0302
,
0000
2003
0000
3010
,
0100
0001
0000
1000
,
0010
0100
0001
0010
,
1000
0100
0000
0001
0100
0010
2000
0000
,
0000
0000
0000
3000
0000
0010
0000
0010
,
0000
0010
0010
0000
0000
0000
0001
0000
,
0001
0001
0001
1000
,
1000
0010
0010
1000
,
0001
1000
0010
0100
,
1000
0100
0010
0001
,
0001
1000
0010
0000
,
0100
0000
0000
0000
0001
1000
0010
0000
,
0000
0001
0000
0010
0000
1000
0000
0100
,
0000
0010
0000
0001
0000
0000
0001
0010
,
0000
0010
1000
0000
0100
0001
0000
0001
,
0100
0010
0000
0000
0000
0000
1000
0000
,
0100
0010
0001
0001
,
0010
0100
1000
1000
,
0100
0010
0100
0001
,
1000
0010
0000
0010
0000
0000
0100
0000
,
0001
0000
1000
0000
0001
0100
0010
0000
,
0010
1000
0000
0000
0100
0010
0100
0000
,
0100
0010
0000
0010
0100
0000
0001
0000
,
0001
1000
0000
1000
0001
0000
0010
0000
,
0100
0001
0000
0001
1000
0000
0100
0000
,
0000
0000
0000
0000
0000
0010
0000
0000
,
0001
0000
0010
0000
,
0100
0001
0000
0000
,
1000
0000
0100
0000
,
0010
0000
1000
0000
,
0100
0010
0001
0001
,
0010
0100
1000
0100
,
0000
0000
0000
0001
0010
0100
0010
0000
,
0000
0000
0000
1000
0100
0010
0100
0000
,
0000
0000
0000
0000
0000
0010
0000
0100
,
0000
0001
0000
1000
0010
0100
0000
0000
,
0001
0000
1000
0000
,
0010
0000
0100
0010
,
0010
0100
0100
0001
,
1000
0010
0100
0001
,
1000
0010
0100
0001
0000
1000
0000
0100
,
0000
0000
0010
0000
0100
0000
0000
0001
0000
0000
1000
0000
0010
0000
0000
0000
,
0100
0001
0000
0000
0000
0000
0000
0000
,
0001
0001
0001
0001
,
0000
0000
1000
0000
,
0100
0000
0000
0000
0010
0100
0010
0000
,
0100
0000
0000
0000
0001
1000
0000
1000
,
0000
1000
0000
1000
0000
0000
0000
0000
,
0010
0000
0100
0000
,
0001
0000
0001
0000
,
0010
0000
0100
0001
,
1000
0001
0100
0020
,
0000
0000
0000
0230
,
0000
0000
0000
2300
,
0000
3200
0000
0320
,
0000
0230
0300
0001
,
0010
1000
0100
0010
,
1000
0100
0001
0020
,
0000
0000
0000
0000
0030
0001
0000
0001
,
0000
0001
0001
0000
0000
0000
0000
0000
,
0100
0000
1000
0100
,
0010
0001
0010
0100
,
1000
0000
0100
0000
,
0001
0010
0100
0001
,
1000
0000
0100
0000
,
0010
0000
0000
0000
0001
0010
0100
0000
,
0000
1000
0000
0100
0000
0010
0000
0001
,
0000
0010
0000
0100
1000
0100
0010
0001
,
0010
0100
1000
0100
0010
0100
0000
0001
,
0100
0001
0000
0000
0000
0000
0010
1000
,
0000
1000
0001
0000
0001
0100
0000
0100
,
0010
1000
0000
0000
0100
0010
0100
0000
,
0001
0001
0000
0000
0001
0000
1000
0000
,
1000
1000
0000
1000
0000
0000
0010
0100
,
0001
1000
0001
0100
0001
0100
0001
1000
,
0010
1000
0010
1000
0010
0100
0001
0000
,
1000
0010
0000
0010
1000
0000
0100
0000
,
0001
0100
0000
0100
0001
0000
0010
0000
,
1000
0010
0000
0010
1000
0000
0200
0000
,
0000
0000
0000
0000
0300
0010
0000
0000
,
0000
0000
0000
1000
0000
0000
0000
0100
,
0010
0001
0010
0000
0000
0000
0100
0000
,
0001
0010
1000
0100
,
0010
0100
0001
1000
,
0000
0100
0000
0010
,
0000
0000
0001
0000
0000
0000
0100
0010
,
0100
0010
0000
1000
0001
1000
0000
0001
,
0100
0010
0000
0010
0100
0002
0000
0000
,
0000
0000
0003
0100
,
0010
1000
0100
0001
,
0000
0001
0001
0000
1000
0000
0000
0100
,
0000
0100
0010
0001
,
0000
0000
0001
0000
0100
0010
0000
0000
,
0010
0010
1000
0000
0100
0000
0001
1000
,
0010
0100
0000
1000
0001
0100
0000
0010
,
0001
0100
0000
0001
0100
0010
1000
0000
,
0000
0000
0000
0000
0000
1000
0000
0100
,
0000
0001
0010
0000
0000
0000
0100
0000
,
0100
0100
0100
0010
,
0010
1000
1000
0100
,
0100
0010
0010
0001
,
0001
0000
0100
0000
0100
0000
0010
1000
,
0001
0000
0001
0100
0001
0010
0010
0100
,
0010
0000
0010
1000
0001
0000
0001
0100
,
0010
1000
0000
0100
0000
0010
0000
0001
,
0000
0010
0000
0100
0000
0000
1000
0000
,
0100
0010
0001
0100
,
0010
1000
0100
0010
,
0100
0001
1000
0001
,
1000
0100
1000
0001
,
0010
0001
0100
0010
,
1000
0100
0001
0010
,
0010
0000
0010
0100
0010
0100
0001
0000
,
0001
1000
0000
0000
0010
0100
0010
0000
,
0000
0001
0000
0001
1000
0010
0100
0000
,
0010
0100
0000
0001
1000
0010
1000
0000
,
0100
1000
0000
0100
0010
0000
0200
0000
,
0000
0000
0000
0000
0000
0310
0000
0010
,
0100
0000
0000
0001
1000
0000
0000
1000
,
0001
0000
0100
0000
0010
0000
0000
0000
0100
0000
0000
0000
0000
0000
0000
0001
,
0000
0000
0000
1000
0000
0100
0010
0001
,
0000
0001
0010
1000
0000
0100
0000
0002
,
0000
0000
0000
0003
0000
0000
0000
0000
;

//---------------dance-single - ----------------
#NOTES:
     dance-single:
     :
     Easy:
     4:
     0.330,0.430,0.000,0.000,0.000,490.000,0.000,0.000,0.000,0.000:
0000
0000
0000
0000
,
0000
0000
0000
0010
,
0001
0010
0100
0001
,
1000
0010
0100
0001
,
0000
0001
0000
0001
0000
0000
0100
0000
,
0000
0100
0000
0100
0000
0000
0010
0000
,
0000
0010
0000
0010
0000
1000
0000
0100
,
0000
0010
0000
0001
0010
0100
0010
0000
,
0000
0010
0000
0010
0000
0000
0100
0000
,
0000
0100
0000
0100
0000
0000
0001
0000
,
0000
0001
0000
0001
0000
1000
0000
0010
,
0000
0100
0000
0001
0000
0000
0000
0000
,
0010
0000
0100
0000
,
1000
0000
0100
0000
,
0010
0000
0000
0000
0001
0010
0000
0100
,
0000
1000
0000
0100
0000
0000
0000
0000
,
0010
0000
0100
0000
,
1000
0000
0100
0000
,
0010
0000
0000
0000
0001
0010
0000
0000
,
0010
0010
0010
0010
,
0100
0000
0100
0000
,
0010
0000
0010
0000
,
1000
0000
0000
0000
1000
0010
0000
0010
,
0000
0010
0000
0010
0000
0000
0000
0000
,
0100
0000
0001
0000
,
1000
0000
0010
0000
,
0100
0000
0001
0010
,
0100
0001
1000
0010
,
0000
0000
0000
0100
,
0000
0000
0000
0001
,
0000
1000
0000
0010
,
0100
0001
0000
1000
,
0000
0100
0000
0010
,
0000
0001
0010
0100
,
0100
0000
0100
0000
0100
0010
0000
0010
,
0000
0010
0100
0000
0000
0000
0100
0000
,
0100
0100
0100
0001
,
0001
0001
0001
1000
,
1000
1000
1000
0010
,
0010
0010
0010
0100
,
0100
0100
0100
0001
,
0001
0001
0001
1000
,
1000
0001
0000
0001
0000
0100
0000
0100
,
0000
0010
0000
0010
0000
0000
0001
0010
,
0000
0010
0100
0000
0100
0001
0000
0001
,
1000
0010
0000
0000
0000
0000
0100
0000
,
0100
0100
0100
0001
,
0001
0001
0001
1000
,
1000
1000
1000
0001
,
0010
0010
0100
0001
,
1000
0010
0100
0001
,
0100
0001
0100
0010
,
0000
0000
0000
0100
0010
0100
0001
0000
,
0000
0000
0000
0010
1000
0010
0100
0000
,
0000
0000
0001
0010
,
0000
0000
0000
0000
0000
0100
0000
0000
,
0000
0000
0010
0000
,
0001
1000
0000
0000
,
0001
0000
0100
0000
,
1000
0000
0100
0010
,
0001
0000
0010
0000
0100
1000
0000
1000
,
0100
0010
0000
0001
0010
0000
0100
0000
,
0000
0000
0000
0010
0100
0010
0100
0000
,
0000
0000
0000
0100
0010
0100
0010
0000
,
0000
0000
0000
0000
0000
0010
0000
0100
,
0000
0001
0000
1000
0010
0100
0000
0000
,
0001
0000
1000
0000
,
0100
0000
0000
0010
0100
0010
0100
0000
,
0000
0000
0000
0100
0010
0100
0010
0000
,
0000
0000
0000
0001
1000
0001
1000
0000
,
0000
0000
0000
0010
0100
0010
0100
0000
,
0000
0000
0000
1000
0100
1000
0100
0000
,
0000
0000
0000
0010
,
0100
0001
1000
0010
,
0000
0000
0100
0000
,
0001
0000
0001
0000
,
1000
0000
0000
0000
1000
0010
0000
0010
,
0000
0010
0000
0010
0000
0000
0000
0000
,
0100
0000
0100
0000
,
0100
0000
0100
0000
,
0100
0000
0000
0100
0010
0000
0010
0000
,
0100
0001
1000
0010
,
0000
0010
0000
0100
,
0000
0100
0000
0001
,
0000
0000
0001
0000
0001
1000
0000
1000
,
0000
1000
0000
0000
0000
0000
0000
0000
,
0010
0000
0100
0000
,
0001
0000
1000
0010
,
0100
0000
0001
0000
1000
0010
0000
0010
,
0000
0001
0100
0000
0000
0000
0010
0000
,
0010
0010
0010
0100
,
0100
0001
0001
1000
,
1000
0001
0100
0001
,
0100
0010
1000
0010
,
0100
0000
0001
0000
,
0100
0000
0010
0000
,
1000
0010
0000
0010
0000
0100
0000
0100
,
0000
0100
0000
0100
0000
0000
0000
0000
,
0010
0000
0100
0000
,
0001
0000
1000
0000
,
0010
0000
0100
0000
,
0001
0000
0000
0000
1000
0010
0100
0000
,
0001
0010
0000
0000
0010
0000
1000
0000
,
0100
0010
0000
0001
0000
0000
0001
0010
,
1000
0010
0100
0001
0100
0010
1000
0000
,
0100
0010
0000
0000
0000
0000
0000
0000
,
0100
0000
0001
0000
,
1000
0000
0100
0000
,
0001
0000
0010
0001
,
0000
0000
0000
0000
0000
1000
0000
0100
,
0010
0000
0000
0001
0010
0000
0000
0010
,
1000
0010
0001
0000
0000
0000
0010
0000
,
0010
0010
0010
0100
,
0100
0100
0100
0001
,
0001
0001
0001
1000
,
0000
0100
0000
0010
,
0000
0001
0000
0010
,
0000
0100
0000
1000
,
0100
0000
0010
0000
0001
0000
0001
0010
,
0100
1000
0100
0010
0100
0010
0100
0000
,
0000
0000
0001
0000
0010
0000
0000
0010
,
0000
0010
0010
0000
0100
0000
0001
0000
,
0000
0001
0001
0000
0000
0000
0100
0010
,
0000
1000
0000
0000
0000
0000
0100
0000
,
0000
0010
0000
0001
,
0000
0010
0000
0100
,
1000
0000
0100
0000
0010
0001
0000
0001
,
0000
0000
0010
0010
0000
0000
0010
0000
,
0100
0100
0100
0001
,
0001
1000
1000
0010
,
0001
0010
0100
1000
,
0100
0010
0001
0000
,
0100
0000
1000
0000
,
0010
0000
0001
0000
,
0010
0100
0000
0100
0000
0001
0000
0010
,
0000
1000
0000
0100
0000
0000
0000
0000
,
0010
0010
0010
0100
,
0100
0100
0100
0001
,
0001
0001
0001
1000
,
1000
1000
1000
0000
,
0010
0000
0100
0000
,
1000
0000
0001
0010
,
0100
0000
0001
1000
0010
0100
0001
0000
,
0001
0010
0000
0000
0010
0100
0010
0000
,
1000
0010
0000
0001
0010
0000
0010
0000
,
0010
0001
0000
0001
0010
0000
0100
0000
,
0010
1000
0000
0100
0010
0000
0001
0000
,
0000
0000
0000
0000
,
0100
0000
0000
0000
,
0100
0000
0100
0000
0100
0000
0000
0100
,
0000
0000
0000
1000
0000
1000
0100
0010
,
0000
0001
0010
0010
0000
0100
0000
0010
;
